<?xml version="1.0" standalone="no"?>
<!DOCTYPE svg PUBLIC "-//W3C//DTD SVG 1.1//EN" "http://www.w3.org/Graphics/SVG/1.1/DTD/svg11.dtd" >
<!--
2020-9-14: Created with FontForge (http://fontforge.org)
-->
<svg xmlns="http://www.w3.org/2000/svg" xmlns:xlink="http://www.w3.org/1999/xlink" version="1.1">
<metadata>
Created by FontForge 20170731 at Mon Sep 14 10:49:25 2020
 By root

</metadata>
<defs>
<font id="Flaticon" horiz-adv-x="512" >
  <font-face 
    font-family="Flaticon"
    font-weight="400"
    font-stretch="normal"
    units-per-em="512"
    panose-1="2 0 5 3 0 0 0 0 0 0"
    ascent="448"
    descent="-64"
    bbox="-0.00494998 -64.0222 652.253 448"
    underline-thickness="25.6"
    underline-position="-51.2"
    unicode-range="U+0020-F113"
  />
    <missing-glyph />
    <glyph glyph-name="space" unicode=" " horiz-adv-x="200" 
 />
    <glyph glyph-name="003-phone" unicode="&#xf102;" 
d="M498.565 53.0195c13.4014 -8.91016 17.4209 -26.7891 9.12109 -40.5791l-26.0566 -43.3086c-8 -13.6201 -20.9658 -23.6104 -36.1758 -27.874c-13.0723 -3.53418 -26.5605 -5.2959 -40.1016 -5.23828c-58.8369 0 -144.439 30.9209 -259.426 145.898
c-144.551 144.568 -156.29 242.695 -140.686 299.553c4.26855 15.207 14.2578 28.1709 27.874 36.1758l43.334 26.0312c13.7871 8.28809 31.6543 4.2666 40.5605 -9.12988l69.1094 -103.631c8.69043 -13.1543 5.82324 -30.7783 -6.58691 -40.502l-38.7861 -30.1768
c-5.11719 -3.91113 -6.57324 -10.9932 -3.41211 -16.6035l3.14844 -5.74219c10.375 -19.001 23.3184 -42.7031 71.0381 -90.4404c47.7197 -47.7363 71.4043 -60.6533 90.4395 -71.0293l5.74219 -3.16504c5.6123 -3.11816 12.6641 -1.63379 16.5439 3.48145l30.1865 38.8125
c9.72266 12.415 27.3506 15.2773 40.502 6.57715zM492.984 21.1953c3.60449 5.98145 1.86035 13.7402 -3.95703 17.6016l-103.621 69.1094c-5.70898 3.76953 -13.3535 2.53125 -17.5771 -2.84961l-30.1768 -38.7949c-9.02832 -11.8066 -25.3633 -15.1768 -38.3271 -7.90918
l-5.60449 3.08887c-19.9902 10.9033 -44.8613 24.4609 -94.3564 73.9473c-49.4941 49.4863 -63.0518 74.3652 -73.9561 94.3643l-3.08008 5.59766c-7.26953 12.9639 -3.89746 29.2988 7.9082 38.3262l38.7959 30.1777c5.38281 4.22266 6.62305 11.8701 2.84961 17.5762
l-31.5098 47.2588l-37.541 56.3633c-3.86426 5.8125 -11.6191 7.55762 -17.6016 3.95801l-43.335 -25.9971c-9.84277 -5.75293 -17.0791 -15.0908 -20.1943 -26.0566c-14.4111 -52.498 -2.47559 -144.192 136.299 -282.967c138.773 -138.774 230.477 -150.71 282.966 -136.3
c10.9531 3.1123 20.2783 10.3398 26.0225 20.1699zM290.118 362.623c-4.71289 0 -8.53223 3.81934 -8.53223 8.53125c0 4.71289 3.81934 8.53223 8.53223 8.53223c89.4893 -0.0986328 162.01 -72.6191 162.108 -162.109c0 -4.71191 -3.81934 -8.53125 -8.53125 -8.53125
c-4.71289 0 -8.53223 3.81934 -8.53223 8.53125c-0.0898438 80.0693 -64.9756 144.956 -145.045 145.046zM290.118 311.431c-4.71289 0 -8.53223 3.81934 -8.53223 8.53125s3.81934 8.53223 8.53223 8.53223c61.2275 -0.0703125 110.846 -49.6885 110.916 -110.917
c0 -4.71191 -3.81934 -8.53125 -8.53125 -8.53125s-8.53223 3.81934 -8.53223 8.53125c-0.0605469 51.8086 -42.0449 93.792 -93.8525 93.8535zM290.118 260.238c-4.71289 0 -8.53223 3.81934 -8.53223 8.53125s3.81934 8.53223 8.53223 8.53223
c32.9688 -0.0371094 59.6855 -26.7559 59.7236 -59.7246c0 -4.71191 -3.82031 -8.53125 -8.53125 -8.53125c-4.71191 0 -8.53223 3.81934 -8.53223 8.53125c-0.0283203 23.5498 -19.1123 42.6328 -42.6602 42.6611z" />
    <glyph glyph-name="001-arrow-right" unicode="&#xf100;" 
d="M386.273 199.667c4.16016 -4.16016 4.16016 -10.8809 0 -15.042l-245.357 -245.357l-0.212891 -0.212891c-4.16016 -4.16113 -10.9883 -4.05469 -15.042 0.212891c-4.16016 4.16016 -4.05371 10.9883 0.213867 15.041l237.783 237.891l-237.783 237.784
c-3.94824 4.16016 -3.94824 10.668 0 14.8281c4.05273 4.16016 10.7734 4.2666 15.041 0.212891z" />
    <glyph glyph-name="013-where-to" unicode="&#xf10c;" 
d="M255.097 445.832c67.5684 0 128.633 -27.4609 173.075 -71.9043c44.082 -44.4434 71.543 -105.507 71.543 -173.075l-28.1836 15.5371c-1.08398 0.722656 -2.16797 1.08398 -3.25195 1.80664c-4.33594 52.3926 -27.0996 99.0039 -62.1484 134.052
c-38.6611 38.6621 -92.1377 62.8711 -151.396 62.8711s-112.734 -23.8477 -151.396 -62.8711c-38.6621 -38.6611 -62.5098 -92.499 -62.5098 -151.757s23.8477 -112.734 62.5098 -151.757c18.7891 -18.7891 40.4678 -33.9648 65.0381 -44.8047
c-20.5957 -2.16797 -41.1904 -2.89062 -59.9795 0c-9.39453 7.22656 -18.4277 14.8145 -26.7383 23.125c-44.4434 44.4424 -71.543 105.507 -71.543 173.437c0 67.5684 27.4609 128.993 71.543 173.437c44.4434 44.4434 105.868 71.9043 173.437 71.9043zM311.103 385.129
c29.2676 -9.39453 55.6445 -25.6543 77.6846 -47.6953c16.2598 -15.8984 29.2676 -34.3252 38.6621 -54.5596l-9.39453 -13.3691l-21.6797 -3.25195l-5.78125 -8.31055l10.4785 -25.293l-9.0332 -23.4863l-24.5693 -9.75586l9.39453 -16.6211l0.361328 -2.16797
c-1.44531 -3.25195 -2.16797 -6.50391 -2.16797 -10.1172c-0.361328 -7.58789 2.5293 -14.0918 7.94922 -19.1504l16.6201 -15.5371v-9.0332l-34.3252 14.4531l-19.5117 -7.22656l-5.41992 42.6367l-22.041 -8.31055l-7.94922 14.4531l-27.0996 13.3691l-44.8047 9.0332
l-16.6211 -2.5293l33.2422 -15.1758l-29.9902 -21.6797l-30.7129 24.209l24.209 -40.4688l21.6797 3.25195l-22.4023 -31.4355l4.33594 -30.3516l-10.8398 -15.1758l2.16797 -14.4521l-19.5117 -36.8555l-16.9824 3.61328l-20.957 40.4678l-4.33594 29.6289
l-11.2012 27.4609l-43.3584 -6.14258l-22.041 17.3438l-4.33594 27.4609l20.2344 35.0488l-8.31055 9.39453l-1.80664 16.6211l14.4531 5.78125l1.80664 17.7051l-21.6797 4.33594l9.0332 24.9316l22.041 -19.873l6.14258 7.22656l14.4531 -0.361328l-1.80664 13.3691
l-12.2852 -0.361328l-7.94922 10.4785l26.0146 36.4932l22.7637 13.7305l40.4688 -14.0918l35.0488 20.5957l24.9316 -4.69727l16.2598 22.7637zM586.072 157.854c15.5371 10.1172 52.7539 16.6211 63.5928 -3.25195c10.8398 -19.873 -14.8135 -47.6953 -31.7959 -55.2832
l-36.4941 -16.6211l-7.22656 -109.843c-0.722656 -10.4785 -7.58789 -19.1504 -17.7051 -22.4023l-14.4531 -4.33594c-5.78125 -1.80664 -11.9238 1.80664 -13.0078 7.94922l-17.7051 96.8359l-36.4941 -16.6211l-8.31055 -45.5273
c-2.5293 -14.0918 -11.5625 -17.3438 -22.041 -21.6797c-5.78125 -2.16797 -12.2852 1.08398 -13.7305 6.86523l-13.3691 53.8379l-37.9385 40.4678c-4.33594 4.69727 -3.61328 11.9238 1.44531 15.1758l5.78027 4.33594c7.22656 5.05859 15.8984 6.14258 23.8477 2.5293
l42.6367 -17.7051l33.9648 21.6797l-70.459 67.9297c-4.33594 4.33594 -4.33594 11.2012 0.361328 15.1758l11.5625 9.75586c7.94922 6.86523 19.1504 7.94922 28.1836 2.89062l96.1133 -53.4766zM398.182 -18.834c-139.833 -59.2578 -382.283 -86.7188 -397.82 89.9697
c0 1.44531 -0.361328 2.89062 -0.361328 3.97461c31.7969 -152.479 234.862 -97.9189 365.302 -36.1318l24.9307 -26.377z" />
    <glyph glyph-name="015-plane" unicode="&#xf10e;" 
d="M499.199 89.5996l-204.8 64.001v-140.801l51.2002 -38.3994v-38.4004l-89.5986 25.5996l-89.6006 -25.5996v38.4004l51.2002 38.3994v140.8l-204.8 -64v51.2002l204.799 128.001v140.799c0 21.249 17.1514 38.4004 38.3994 38.4004
c21.249 0 38.4004 -17.1514 38.4004 -38.4004v-140.799l204.8 -128.001v-51.2002z" />
    <glyph glyph-name="012-user" unicode="&#xf10b;" 
d="M255.999 191.34c134.927 0 244.702 -109.774 244.702 -244.7c0 -5.87305 -4.7666 -10.6396 -10.6396 -10.6396h-468.123c-5.87305 0 -10.6396 4.7666 -10.6396 10.6396c0 134.925 109.774 244.7 244.7 244.7zM138.969 330.97c0 64.6338 52.3965 117.03 117.03 117.03
c64.6348 0 117.031 -52.3965 117.031 -117.03c0 -64.6348 -52.3965 -117.031 -117.031 -117.031c-64.6338 0 -117.03 52.3965 -117.03 117.031z" />
    <glyph glyph-name="007-youtube" unicode="&#xf106;" 
d="M490.24 334.08c14.4639 -24.6719 21.7598 -67.168 21.7598 -142.016v-0.0966797v-0.160156c0 -74.4961 -7.2959 -117.312 -21.7275 -141.728c-13.8887 -24.7041 -28.9609 -29.1836 -59.6484 -31.2637c-30.6885 -1.76074 -107.776 -2.81641 -174.56 -2.81641
c-66.9121 0 -144.032 1.05566 -174.688 2.84766c-30.624 2.08008 -45.6963 6.56055 -59.7119 31.2646c-14.3037 24.416 -21.6641 67.2314 -21.6641 141.728v0.0644531v0.0957031v0.0957031c0 74.8164 7.36035 117.312 21.6641 141.984
c14.0156 24.7363 29.1201 29.248 59.7441 31.0078c30.624 2.04785 107.744 2.91211 174.656 2.91211c66.7832 0 143.871 -0.864258 174.527 -2.94434c30.6885 -1.72754 45.7598 -6.27148 59.6484 -30.9756zM192 96l160 96l-160 96v-192z" />
    <glyph glyph-name="010-twitter" unicode="&#xf109;" 
d="M512 350.752c-14.2725 -21.248 -31.7764 -39.7119 -52.6084 -54.4961c0.224609 -4.44824 0.384766 -8.92773 0.384766 -13.5674c0 -138.688 -105.601 -298.688 -298.752 -298.688c-59.4248 0 -114.528 17.1201 -161.024 47.1035
c8.25586 -1.05566 16.5117 -1.43945 25.1201 -1.43945c49.0879 0 94.4316 16.832 130.144 44.7676c-45.8877 0.992188 -84.4795 31.5527 -98.0801 73.1201c6.36816 -1.4082 13.1523 -1.79199 19.8721 -1.79199c9.66406 0 18.9766 1.12012 27.5205 3.45605
c-47.7119 9.75977 -84.0957 52.1279 -84.0957 103.136v1.15234c14.0156 -7.71191 30.5596 -12.6074 47.4238 -12.9277c-27.9043 18.6562 -46.624 50.8799 -46.624 87.2314c0 19.3604 5.31152 37.3447 14.3682 53.0566c51.8711 -63.7119 129.088 -105.536 216.352 -109.792
c-1.72754 7.61621 -2.43164 15.6162 -2.43164 23.9355c0 57.8242 46.7832 104.992 104.896 104.992c29.9521 0 57.4082 -12.7041 76.6719 -33.2158c23.8721 4.76758 46.2725 13.3115 66.5605 25.4082c-7.80859 -24.6084 -24.416 -45.0244 -46.1768 -58.0166
c21.1523 2.68848 41.4404 8.22461 60.4805 16.5762z" />
    <glyph glyph-name="014-date" unicode="&#xf10d;" 
d="M53.8389 -64c-29.9502 0 -53.8389 24.2451 -53.8389 53.8389v344.423c0 29.9502 23.8887 53.8389 53.8389 53.8389h3.20801v22.1055c0 16.0449 13.1924 29.2373 28.8809 29.2373h21.3926c16.0449 0 28.8799 -13.1924 28.8799 -29.2373v-22.1055h192.892v22.1055
c0 16.0449 13.1924 29.2373 29.2373 29.2373h21.3926c16.0439 0 29.2363 -13.1924 29.2363 -29.2373v-22.1055h14.9756c29.9492 0 53.8379 -24.2451 53.8379 -53.8389v-344.423c0 -29.9502 -24.2451 -53.8389 -53.8379 -53.8389h-370.095zM423.934 -42.9639
c18.1836 0 33.1582 14.9746 33.1582 33.1592v344.423c0 18.1836 -14.6182 33.1592 -33.1582 33.1592h-370.095c-18.1846 0 -33.1592 -14.9756 -33.1592 -33.1592v-344.423c0 -18.1846 14.9746 -33.1592 33.1592 -33.1592h370.095zM63.1084 -10.875
c-4.27832 0 -8.55664 1.42676 -11.7656 4.2793c-3.20898 2.85156 -5.70508 7.13086 -5.70508 12.1221v29.9502c0 5.34766 2.49609 9.62695 5.70508 12.1221c3.20898 2.49609 7.4873 4.27832 11.7656 4.27832h33.8721c4.27832 0 8.55762 -1.42578 11.7656 -4.27832
c3.20898 -2.85254 5.70508 -7.13086 5.70508 -12.1221v-29.9502c0 -5.34766 -2.49609 -9.27051 -5.70508 -12.1221c-3.20801 -2.85254 -7.4873 -4.2793 -11.7656 -4.2793h-33.8721zM140.836 -10.875c-4.2793 0 -8.55762 1.42676 -11.7666 4.2793
c-3.20898 2.85156 -5.7041 7.13086 -5.7041 12.1221v29.9502c0 5.34766 2.49512 9.62695 5.7041 12.1221c3.20898 2.49609 7.4873 4.27832 11.7666 4.27832h33.8721c4.27832 0 8.2002 -1.42578 11.7656 -4.27832c3.20898 -2.85254 5.70508 -7.13086 5.70508 -12.1221
v-29.9502c0 -5.34766 -2.49609 -9.27051 -5.70508 -12.1221c-3.20898 -2.85254 -7.4873 -4.2793 -11.7656 -4.2793h-33.8721zM218.919 -10.875c-4.27832 0 -8.55664 1.42676 -11.7656 4.2793c-3.20898 2.85156 -5.70508 7.13086 -5.70508 12.1221v29.9502
c0 5.34766 2.49609 9.62695 5.70508 12.1221c3.20898 2.49609 7.4873 4.27832 11.7656 4.27832h33.8721c4.27832 0 8.55762 -1.42578 11.7656 -4.27832c3.20898 -2.85254 5.70508 -7.13086 5.70508 -12.1221v-29.9502c0 -5.34766 -2.49609 -9.27051 -5.70508 -12.1221
c-3.20801 -2.85254 -7.4873 -4.2793 -11.7656 -4.2793h-33.8721zM298.785 -10.875c-4.27832 0 -8.55664 1.42676 -11.7656 4.2793c-3.20898 2.85156 -5.70508 7.13086 -5.70508 12.1221v29.9502c0 5.34766 2.49609 9.62695 5.70508 12.1221
c3.20898 2.49609 7.4873 4.27832 11.7656 4.27832h33.8721c4.27832 0 8.55762 -1.42578 11.7666 -4.27832c3.20801 -2.85254 5.7041 -7.13086 5.7041 -12.1221v-29.9502c0 -5.34766 -2.49609 -9.27051 -5.7041 -12.1221
c-3.20898 -2.85254 -7.48828 -4.2793 -11.7666 -4.2793h-33.8721zM378.651 -10.875c-4.27832 0 -8.55664 1.42676 -11.7656 4.2793c-3.20898 2.85156 -5.70508 7.13086 -5.70508 12.1221v29.9502c0 5.34766 2.49609 9.62695 5.70508 12.1221
c3.20898 2.49609 7.4873 4.27832 11.7656 4.27832h33.8721c4.27832 0 8.55762 -1.42578 11.7666 -4.27832s5.7041 -7.13086 5.7041 -12.1221v-29.9502c0 -5.34766 -2.49512 -9.27051 -5.7041 -12.1221c-3.20898 -2.85254 -7.48828 -4.2793 -11.7666 -4.2793h-33.8721z
M93.415 10.1611v20.6797h-27.0977v-20.6797h27.0977zM171.499 10.1611v20.6797h-27.0977v-20.6797h27.0977zM249.582 10.1611v20.6797h-27.0977v-20.6797h27.0977zM329.448 10.1611v20.6797h-27.0977v-20.6797h27.0977zM409.314 10.1611v20.6797h-27.0977v-20.6797h27.0977z
M63.1084 67.209c-4.27832 0 -8.55664 1.42578 -11.7656 4.27832s-5.70508 7.13086 -5.70508 12.123v29.9492c0 4.99219 2.49609 9.27051 5.70508 12.123s7.4873 4.27832 11.7656 4.27832h33.8721c4.27832 0 8.55762 -1.42578 11.7656 -4.27832
c3.20898 -2.85254 5.70508 -7.13086 5.70508 -12.123v-29.9492c0 -4.99219 -2.49609 -9.27051 -5.70508 -12.123c-3.20801 -2.85254 -7.4873 -4.27832 -11.7656 -4.27832h-33.8721zM140.836 67.209c-4.2793 0 -8.55762 1.42578 -11.7666 4.27832
s-5.7041 7.13086 -5.7041 12.123v29.9492c0 4.99219 2.49512 9.27051 5.7041 12.123s7.4873 4.27832 11.7666 4.27832h33.8721c4.27832 0 8.2002 -1.42578 11.7656 -4.27832c3.20898 -2.85254 5.70508 -7.13086 5.70508 -12.123v-29.9492
c0 -4.99219 -2.49609 -9.27051 -5.70508 -12.123s-7.4873 -4.27832 -11.7656 -4.27832h-33.8721zM218.919 67.209c-4.27832 0 -8.55664 1.42578 -11.7656 4.27832s-5.70508 7.13086 -5.70508 12.123v29.9492c0 4.99219 2.49609 9.27051 5.70508 12.123
s7.4873 4.27832 11.7656 4.27832h33.8721c4.27832 0 8.55762 -1.42578 11.7656 -4.27832c3.20898 -2.85254 5.70508 -7.13086 5.70508 -12.123v-29.9492c0 -4.99219 -2.49609 -9.27051 -5.70508 -12.123c-3.20801 -2.85254 -7.4873 -4.27832 -11.7656 -4.27832h-33.8721z
M298.785 67.209c-4.27832 0 -8.55664 1.42578 -11.7656 4.27832s-5.70508 7.13086 -5.70508 12.123v29.9492c0 4.99219 2.49609 9.27051 5.70508 12.123s7.4873 4.27832 11.7656 4.27832h33.8721c4.27832 0 8.55762 -1.42578 11.7666 -4.27832
c3.20801 -2.85254 5.7041 -7.13086 5.7041 -12.123v-29.9492c0 -4.99219 -2.49609 -9.27051 -5.7041 -12.123c-3.20898 -2.85254 -7.48828 -4.27832 -11.7666 -4.27832h-33.8721zM378.651 67.209c-4.27832 0 -8.55664 1.42578 -11.7656 4.27832
s-5.70508 7.13086 -5.70508 12.123v29.9492c0 4.99219 2.49609 9.27051 5.70508 12.123s7.4873 4.27832 11.7656 4.27832h33.8721c4.27832 0 8.55762 -1.42578 11.7666 -4.27832s5.7041 -7.13086 5.7041 -12.123v-29.9492c0 -4.99219 -2.49512 -9.27051 -5.7041 -12.123
s-7.48828 -4.27832 -11.7666 -4.27832h-33.8721zM93.415 88.2451v20.6797h-27.0977v-20.6797h27.0977zM171.499 88.2451v20.6797h-27.0977v-20.6797h27.0977zM249.582 88.2451v20.6797h-27.0977v-20.6797h27.0977zM329.448 88.2451v20.6797h-27.0977v-20.6797h27.0977z
M409.314 88.2451v20.6797h-27.0977v-20.6797h27.0977zM63.1084 142.797c-4.27832 0 -8.55664 1.42578 -11.7656 4.27832s-5.70508 7.13086 -5.70508 12.123v29.9492c0 5.34863 2.49609 9.27051 5.70508 12.123c3.20898 2.49512 7.4873 4.27832 11.7656 4.27832h33.8721
c4.27832 0 8.55762 -1.42578 11.7656 -4.27832c3.20898 -2.85254 5.70508 -7.13086 5.70508 -12.123v-29.9492c0 -5.34863 -2.49609 -9.27051 -5.70508 -12.123c-3.20801 -2.85254 -7.4873 -4.27832 -11.7656 -4.27832h-33.8721zM140.836 142.797
c-4.2793 0 -8.55762 1.42578 -11.7666 4.27832s-5.7041 7.13086 -5.7041 12.123v29.9492c0 5.34863 2.49512 9.27051 5.7041 12.123c3.20898 2.49512 7.4873 4.27832 11.7666 4.27832h33.8721c4.27832 0 8.2002 -1.42578 11.7656 -4.27832
c3.20898 -2.85254 5.70508 -7.13086 5.70508 -12.123v-29.9492c0 -5.34863 -2.49609 -9.27051 -5.70508 -12.123s-7.4873 -4.27832 -11.7656 -4.27832h-33.8721zM218.919 142.797c-4.27832 0 -8.55664 1.42578 -11.7656 4.27832s-5.70508 7.13086 -5.70508 12.123v29.9492
c0 5.34863 2.49609 9.27051 5.70508 12.123c3.20898 2.49512 7.4873 4.27832 11.7656 4.27832h33.8721c4.27832 0 8.55762 -1.42578 11.7656 -4.27832c3.20898 -2.85254 5.70508 -7.13086 5.70508 -12.123v-29.9492c0 -5.34863 -2.49609 -9.27051 -5.70508 -12.123
c-3.20801 -2.85254 -7.4873 -4.27832 -11.7656 -4.27832h-33.8721zM298.785 142.797c-4.27832 0 -8.55664 1.42578 -11.7656 4.27832s-5.70508 7.13086 -5.70508 12.123v29.9492c0 5.34863 2.49609 9.27051 5.70508 12.123c3.20898 2.49512 7.4873 4.27832 11.7656 4.27832
h33.8721c4.27832 0 8.55762 -1.42578 11.7666 -4.27832c3.20801 -2.85254 5.7041 -7.13086 5.7041 -12.123v-29.9492c0 -5.34863 -2.49609 -9.27051 -5.7041 -12.123c-3.20898 -2.85254 -7.48828 -4.27832 -11.7666 -4.27832h-33.8721zM378.651 142.797
c-4.27832 0 -8.55664 1.42578 -11.7656 4.27832s-5.70508 7.13086 -5.70508 12.123v29.9492c0 5.34863 2.49609 9.27051 5.70508 12.123c3.20898 2.49512 7.4873 4.27832 11.7656 4.27832h33.8721c4.27832 0 8.55762 -1.42578 11.7666 -4.27832
s5.7041 -7.13086 5.7041 -12.123v-29.9492c0 -5.34863 -2.49512 -9.27051 -5.7041 -12.123s-7.48828 -4.27832 -11.7666 -4.27832h-33.8721zM93.415 163.833v20.6797h-27.0977v-20.6797h27.0977zM171.499 163.833v20.6797h-27.0977v-20.6797h27.0977zM249.582 163.833
v20.6797h-27.0977v-20.6797h27.0977zM329.448 163.833v20.6797h-27.0977v-20.6797h27.0977zM409.314 163.833v20.6797h-27.0977v-20.6797h27.0977zM63.1084 218.028c-4.27832 0 -8.55664 1.42578 -11.7656 4.27832s-5.70508 7.13086 -5.70508 12.1221v29.9502
c0 4.99121 2.49609 9.27051 5.70508 12.1221c3.20898 2.85254 7.4873 4.2793 11.7656 4.2793h33.8721c4.27832 0 8.55762 -1.42676 11.7656 -4.2793c3.20898 -2.85156 5.70508 -7.13086 5.70508 -12.1221v-29.9502c0 -4.99121 -2.49609 -9.26953 -5.70508 -12.1221
c-3.20801 -2.85254 -7.4873 -4.27832 -11.7656 -4.27832h-33.8721zM140.836 218.028c-4.2793 0 -8.55762 1.42578 -11.7666 4.27832s-5.7041 7.13086 -5.7041 12.1221v29.9502c0 4.99121 2.49512 9.27051 5.7041 12.1221c3.20898 2.85254 7.4873 4.2793 11.7666 4.2793
h33.8721c4.27832 0 8.2002 -1.42676 11.7656 -4.2793c3.20898 -2.85156 5.70508 -7.13086 5.70508 -12.1221v-29.9502c0 -4.99121 -2.49609 -9.26953 -5.70508 -12.1221s-7.4873 -4.27832 -11.7656 -4.27832h-33.8721zM218.919 218.028
c-4.27832 0 -8.55664 1.42578 -11.7656 4.27832s-5.70508 7.13086 -5.70508 12.1221v29.9502c0 4.99121 2.49609 9.27051 5.70508 12.1221c3.20898 2.85254 7.4873 4.2793 11.7656 4.2793h33.8721c4.27832 0 8.55762 -1.42676 11.7656 -4.2793
c3.20898 -2.85156 5.70508 -7.13086 5.70508 -12.1221v-29.9502c0 -4.99121 -2.49609 -9.26953 -5.70508 -12.1221c-3.20801 -2.85254 -7.4873 -4.27832 -11.7656 -4.27832h-33.8721zM298.785 218.028c-4.27832 0 -8.55664 1.42578 -11.7656 4.27832
s-5.70508 7.13086 -5.70508 12.1221v29.9502c0 4.99121 2.49609 9.27051 5.70508 12.1221c3.20898 2.85254 7.4873 4.2793 11.7656 4.2793h33.8721c4.27832 0 8.55762 -1.42676 11.7666 -4.2793c3.20801 -2.85156 5.7041 -7.13086 5.7041 -12.1221v-29.9502
c0 -4.99121 -2.49609 -9.26953 -5.7041 -12.1221c-3.20898 -2.85254 -7.48828 -4.27832 -11.7666 -4.27832h-33.8721zM378.651 218.028c-4.27832 0 -8.55664 1.42578 -11.7656 4.27832s-5.70508 7.13086 -5.70508 12.1221v29.9502
c0 4.99121 2.49609 9.27051 5.70508 12.1221c3.20898 2.85254 7.4873 4.2793 11.7656 4.2793h33.8721c4.27832 0 8.55762 -1.42676 11.7666 -4.2793c3.20898 -2.85156 5.7041 -7.13086 5.7041 -12.1221v-29.9502c0 -4.99121 -2.49512 -9.26953 -5.7041 -12.1221
s-7.48828 -4.27832 -11.7666 -4.27832h-33.8721zM93.415 239.064v20.6797h-27.0977v-20.6797h27.0977zM171.499 239.064v20.6797h-27.0977v-20.6797h27.0977zM249.582 239.064v20.6797h-27.0977v-20.6797h27.0977zM329.448 239.064v20.6797h-27.0977v-20.6797h27.0977z
M409.314 239.064v20.6797h-27.0977v-20.6797h27.0977zM54.5518 315.009c-5.70508 0 -10.3398 4.63477 -10.3398 10.3398c0 5.7041 4.63477 10.3398 10.3398 10.3398h359.042c5.7041 0 10.3398 -4.63574 10.3398 -10.3398c0 -5.70508 -4.63574 -10.3398 -10.3398 -10.3398
h-359.042zM115.521 398.44v11.7656c0 4.63477 -3.56543 8.2002 -8.2002 8.2002h-21.3926c-4.63574 0 -8.20117 -3.56543 -8.20117 -8.2002v-11.7656h37.7939zM388.278 398.44v11.7656c0 4.63477 -3.56543 8.2002 -8.2002 8.2002h-21.3926
c-4.63574 0 -8.20117 -3.56543 -8.20117 -8.2002v-11.7656h37.7939z" />
    <glyph glyph-name="002-map-pin" unicode="&#xf101;" 
d="M256 448c99.9893 0 181.333 -81.3438 181.335 -181.333c0 -96.7256 -165.782 -317.099 -172.843 -326.443c-1.98438 -2.66699 -5.16309 -4.22363 -8.49121 -4.22363s-6.50684 1.55664 -8.49121 4.22363c-7.06152 9.34473 -172.843 229.719 -172.843 326.443
c0 99.9893 81.3438 181.333 181.333 181.333zM256 170.667c52.9277 0 96 43.0723 96 96s-43.0723 96 -96 96s-96 -43.0723 -96 -96s43.0723 -96 96 -96z" />
    <glyph glyph-name="006-facebook" unicode="&#xf105;" 
d="M448 448c35.2959 0 64 -28.7041 64 -64v-384c0 -35.2959 -28.7041 -64 -64 -64h-96v176h48l32 80h-80v64c0 17.6641 14.3359 16 32 16h32v80h-64c-53.0244 0 -96 -42.9756 -96 -96v-64h-64v-80h64v-176h-192c-35.2959 0 -64 28.7041 -64 64v384
c0 35.2959 28.7041 64 64 64h384z" />
    <glyph glyph-name="016-bed" unicode="&#xf10f;" 
d="M139.637 180.364c-38.5166 0 -69.8184 31.3008 -69.8184 69.8174c0 38.5176 31.3018 69.8184 69.8184 69.8184s69.8184 -31.3008 69.8184 -69.8184c0 -38.5166 -31.3018 -69.8174 -69.8184 -69.8174zM418.909 320c51.4336 0 93.0908 -41.6582 93.0918 -93.0908v-209.454
h-46.5459v69.8184h-418.909v-69.8184h-46.5459v349.091h46.5459v-209.454h186.182v162.908h186.182z" />
    <glyph glyph-name="011-where-from" unicode="&#xf10a;" 
d="M226.605 1.20215l-122.21 211.285c-26.7227 46.3184 -26.7227 101.545 0 147.863c26.7217 46.3193 74.8223 74.1104 128.267 74.1104c53.8018 0 101.545 -27.791 128.268 -74.1104c26.7227 -46.3184 26.7227 -101.545 0 -147.863l-122.21 -211.285
c-1.06934 -2.1377 -3.56348 -3.5625 -6.05762 -3.5625s-4.63184 1.4248 -6.05664 3.5625zM116.865 353.225c-24.2275 -41.6865 -24.2275 -91.9248 0 -133.611l115.797 -200.952l115.797 200.596c24.2285 42.043 24.2285 91.9248 0 133.968
c-24.2275 42.043 -67.3398 66.9844 -115.797 66.9844c-48.0996 0 -91.5684 -24.9414 -115.797 -66.9844zM232.662 -7.34863c-4.27539 0 -8.19434 2.1377 -10.332 6.05664l-122.21 211.285c-27.792 47.7441 -27.792 105.107 0 152.852
c27.791 47.7441 76.96 76.6045 132.542 76.6045c55.2266 0 104.752 -28.5039 132.543 -76.6045c27.791 -47.7441 27.791 -105.107 0 -152.852l-122.21 -211.285c-2.1377 -3.5625 -6.05664 -6.05664 -10.333 -6.05664zM232.662 429.473
c-51.6631 0 -97.9814 -26.7227 -123.991 -71.6162s-26.0098 -98.3379 0 -142.875l122.21 -211.285c0.712891 -1.4248 2.85059 -1.4248 3.56348 0l122.21 211.285c26.0098 44.8936 26.0098 98.3379 0 142.875c-26.0098 44.8936 -72.3291 71.6162 -123.992 71.6162z
M232.662 8.68457l-120.072 208.078c-24.9404 43.4688 -24.9404 95.4883 0 138.956v0c24.9414 43.4688 70.1914 69.4785 120.072 69.4785c50.2383 0 95.1318 -26.0098 120.073 -69.4785c24.9404 -43.4678 24.9404 -95.4873 0 -138.956zM121.142 351.087
c-23.1602 -40.2617 -23.1602 -88.7178 0 -128.979l111.521 -193.47l111.521 193.47c23.1592 40.2617 23.1592 88.7178 0 128.979s-65.2021 64.4902 -111.521 64.4902c-46.3184 0 -88.3613 -24.2285 -111.521 -64.4902v0zM232.662 185.408
c-57.0068 0 -103.326 46.3193 -103.326 103.327c0 57.0068 46.3193 103.326 103.326 103.326c57.0078 0 103.327 -46.3193 103.327 -103.326c0 -57.0078 -46.3193 -103.327 -103.327 -103.327zM232.662 377.81c-49.1689 0 -89.0742 -39.9053 -89.0742 -89.0742
c0 -49.1699 39.9053 -89.0752 89.0742 -89.0752c49.1699 0 89.0752 39.9053 89.0752 89.0752c0 49.1689 -39.9053 89.0742 -89.0752 89.0742zM232.662 180.42c-59.501 0 -108.314 48.457 -108.314 108.315c0 59.501 48.457 108.314 108.314 108.314
c59.8584 0 108.314 -48.457 108.314 -108.314c0 -59.8584 -48.4561 -108.315 -108.314 -108.315zM232.662 387.073c-54.1572 0 -98.3379 -44.1807 -98.3379 -98.3379c0 -54.1582 44.1807 -98.3389 98.3379 -98.3389s98.3389 44.1807 98.3389 98.3389
c0 54.1572 -44.1816 98.3379 -98.3389 98.3379zM232.662 194.316c-52.0195 0 -94.0625 42.3994 -94.0625 94.0625c0 52.0195 42.3994 94.0625 94.0625 94.0625s94.0635 -42.3994 94.0635 -94.0625s-42.0439 -94.0625 -94.0635 -94.0625zM232.662 372.821
c-46.3184 0 -84.4424 -37.7676 -84.4424 -84.4424c0 -46.3193 37.7676 -84.4434 84.4424 -84.4434c46.3193 0 84.4434 37.7676 84.4434 84.4434c0 46.6748 -37.7676 84.4424 -84.4434 84.4424zM312.117 68.1865c34.917 -3.20703 148.22 -17.459 148.576 -58.7891
c0 -40.2617 -109.384 -60.9268 -210.929 -62.709h-16.7461h-16.7461c-101.9 2.13867 -211.284 22.4473 -211.284 62.709c0 41.6865 113.303 55.9385 148.22 59.1455c3.91895 0.356445 7.48242 -2.49414 7.83887 -6.41309
c0.356445 -3.91992 -2.49414 -7.48242 -6.41406 -7.83887c-88.3613 -8.55176 -135.749 -29.5732 -135.749 -45.25c0 -18.1709 70.1904 -45.9619 197.389 -48.8125h16.3896h16.3896c127.199 2.1377 197.39 30.2852 197.39 48.4561c0 15.6777 -47.7441 36.6992 -135.75 45.25
c-3.91895 0.712891 -6.76953 3.91895 -6.41309 7.83887c0.712891 3.91895 3.91895 6.76953 7.83887 6.41309zM232.662 -58.6553h-16.7461c-80.167 1.4248 -215.916 17.458 -215.916 67.6963c0 44.5371 106.89 59.502 152.852 64.1338
c6.41309 0.712891 12.4707 -4.27539 13.1836 -10.6895c0.711914 -6.41309 -4.27637 -12.4697 -10.6895 -13.1826c-92.6377 -8.90723 -131.117 -30.6416 -131.117 -40.2617c0 -4.98828 12.4697 -15.6768 47.3877 -25.6533
c26.3652 -7.48242 72.6846 -16.7461 145.013 -18.1709h16.3896h16.3896c72.3291 1.4248 118.647 10.6885 145.014 18.1709c34.917 9.97656 47.3877 20.665 47.3877 25.6533c0 9.62012 -38.4805 31.3545 -131.118 40.2617
c-6.41309 0.712891 -11.4014 6.41309 -10.6885 13.1826c0.356445 3.20703 1.78125 6.05762 4.27539 8.19531s5.70117 2.85059 8.90723 2.49414v0c45.9629 -4.27539 152.852 -19.5967 152.852 -64.1338c0 -50.2383 -135.749 -65.915 -215.916 -67.6963h-17.459z
M153.921 63.5547v0c-18.8838 -1.78125 -54.5137 -6.05664 -86.5811 -14.9648c-26.3652 -7.48242 -57.7197 -19.9521 -57.7197 -39.1924c0 -30.6416 88.7178 -55.583 206.296 -57.7207h16.7461h16.7461c117.578 2.1377 206.297 27.0791 206.297 57.7207
c0 18.8838 -31.3545 31.71 -57.7207 39.1924c-32.0664 8.9082 -67.6963 13.1836 -86.2236 14.9648v0c-0.712891 0 -1.42578 -0.356445 -1.42578 -0.356445c-0.355469 -0.356445 -0.711914 -0.712891 -0.711914 -1.4248c0 -1.06934 0.711914 -2.1377 1.78125 -2.1377
c82.6611 -7.83887 140.025 -28.5039 140.025 -49.8818c0 -16.7461 -34.2051 -29.2168 -54.5137 -34.917c-26.7227 -7.83887 -74.4668 -17.1025 -147.508 -18.5283h-16.3896h-16.3896c-73.3975 1.42578 -120.785 10.6895 -147.507 18.5283
c-20.3096 5.7002 -54.5137 18.1709 -54.5137 34.917c0 21.3779 57.7197 42.043 140.024 49.8818c1.06934 0 2.13867 1.06836 1.78223 2.1377c-0.356445 0.711914 -1.42578 1.78125 -2.49414 1.78125z" />
    <glyph glyph-name="009-linkedin" unicode="&#xf108;" 
d="M484.766 448c15.0439 0 27.2344 -12.1953 27.2344 -27.2344v-457.531c0 -15.0391 -12.1904 -27.2344 -27.2344 -27.2344h-457.531c-15.0391 0 -27.2344 12.1953 -27.2344 27.2344v457.531c0 15.0391 12.1953 27.2344 27.2344 27.2344h457.531zM143.872 -10.627v0
l-0.00585938 270.695h-84.1367v-270.695h84.1426zM101.817 297.069c26.9014 0 48.7539 21.8574 48.7539 48.792c0 26.9072 -21.8525 48.7598 -48.7539 48.7598c-26.9561 0 -48.793 -21.8633 -48.7979 -48.7598c0 -26.9346 21.8301 -48.792 48.7979 -48.792zM458.98 -10.6211
h-0.00488281v148.485c0 72.873 -15.7305 128.942 -100.924 128.942c-40.9111 0 -68.3633 -22.4414 -79.5996 -43.7217h-1.12793v36.9834h-80.7002v-270.689h84.0771v133.915c0 35.3008 6.72656 69.4961 50.4814 69.4961c43.1602 0 43.7324 -40.3828 43.7324 -71.7783
v-131.633h84.0654z" />
    <glyph glyph-name="008-instagram" unicode="&#xf107;" 
d="M256.085 323.456c72.5342 0 131.371 -58.7734 131.371 -131.371c0 -72.5332 -58.7734 -131.37 -131.371 -131.37c-72.5332 0 -131.37 58.7734 -131.37 131.37c0 72.5342 58.7734 131.371 131.37 131.371zM256.085 106.816c47.126 0 85.291 38.165 85.2695 85.2686
c0 47.1045 -38.165 85.2695 -85.2695 85.2695c-47.1035 0 -85.2686 -38.165 -85.2686 -85.2695c0 -47.1035 38.1436 -85.2686 85.2686 -85.2686zM361.558 446.379c96.3623 -4.4375 144.597 -58.9443 148.821 -148.821c2.09082 -47.1465 2.21875 -163.798 0 -210.923
c-3.49902 -76.1387 -39.2959 -118.528 -86.7207 -136.938c-34.8799 -13.5039 -68.9277 -13.4404 -167.573 -13.4404c-96.1494 0 -163.456 -6.46387 -212.885 42.9443c-48.4912 48.4902 -42.9443 113.301 -42.9443 212.885c0 97.3018 -6.29297 163.648 42.9443 212.886
c29.4609 29.4609 66.0049 39.4668 107.435 41.4082c47.1465 2.09082 163.818 2.19727 210.923 0zM436.117 11.7764c31.7227 31.8721 29.7178 74.9014 29.7393 180.33c0 68.3096 -0.277344 76.416 -1.49414 103.403c-5.35449 118.271 -94.5488 106.367 -208.234 106.367
l-0.959961 0.640625c-68.416 0 -76.416 -0.320312 -103.595 -1.28027c-118.293 -6.05859 -106.197 -90.9443 -106.197 -208.811c0 -87.1045 -6.50684 -144.555 29.4404 -180.331c31.21 -31.2959 73.9834 -29.7168 180.65 -29.7168
c103.595 0 148.373 -2.87988 180.65 29.3975zM361.963 328.64c0 16.9551 13.7441 30.6992 30.6982 30.6992c16.9551 0 30.6992 -13.7441 30.6992 -30.6992c0 -16.9541 -13.7441 -30.6982 -30.6992 -30.6982c-16.9541 0 -30.6982 13.7441 -30.6982 30.6982z" />
    <glyph glyph-name="004-passport" unicode="&#xf103;" 
d="M256 149.333c-12.001 0 -29.582 38.0186 -31.6035 96h63.207c-2.02148 -57.9824 -19.6025 -96 -31.6035 -96zM290.159 356.548c38.7314 -13.2129 67.1729 -47.8379 71.4297 -89.8809h-52.4482c-1.10156 34.2334 -7.5332 67.5273 -18.9814 89.8809zM150.411 266.667
c4.25684 42.043 32.6982 76.668 71.4297 89.8809c-11.4482 -22.3535 -17.8799 -55.6475 -18.9814 -89.8809h-52.4482zM256 362.667c12.001 0 29.582 -38.0186 31.6035 -96h-63.207c2.02148 57.9824 19.6025 96 31.6035 96zM405.333 448
c23.5322 0 42.667 -19.1348 42.667 -42.667v-426.666c0 -23.5322 -19.1348 -42.667 -42.666 -42.667h-298.667c-23.5322 0 -42.667 19.1348 -42.667 42.666v426.667c0 23.5322 19.1348 42.667 42.667 42.667h298.666zM330.667 0c5.89648 0 10.666 4.77148 10.666 10.667
c0 5.89648 -4.77148 10.667 -10.667 10.667h-149.333c-5.89648 0 -10.667 -4.77051 -10.667 -10.667c0 -5.89551 4.77051 -10.667 10.667 -10.667h149.334zM373.333 64c5.89551 0 10.667 4.77148 10.668 10.667c0 5.89648 -4.77051 10.667 -10.667 10.667h-234.667
c-5.89551 0 -10.667 -4.77051 -10.667 -10.667c0 -5.89551 4.77148 -10.667 10.667 -10.667h234.666zM256 128c70.583 0 128 57.417 128 128s-57.417 128 -128 128s-128 -57.417 -128 -128s57.417 -128 128 -128zM290.159 155.452
c11.4482 22.3535 17.8799 55.6475 18.9814 89.8809h52.4482c-4.25684 -42.042 -32.6982 -76.667 -71.4297 -89.8809zM150.411 245.333h52.4482c1.10156 -34.2334 7.5332 -67.5273 18.9814 -89.8809c-38.7314 13.2129 -67.1729 47.8379 -71.4297 89.8809z" />
    <glyph glyph-name="019-arrow-down" unicode="&#xf112;" 
d="M508.879 322.24c4.16113 -4.16113 4.16113 -10.9902 -0.000976562 -15.0459l-245.436 -245.435c-4.16113 -4.16211 -10.8848 -4.16211 -15.0459 0l-245.436 245.435c-3.94824 4.16211 -3.94824 10.6719 0 14.833c4.05469 4.16211 10.7773 4.26758 15.0469 0.212891
l237.858 -237.965l237.966 237.965c4.16211 4.16211 10.8848 4.16211 15.0469 0z" />
    <glyph glyph-name="005-earth" unicode="&#xf104;" 
d="M373.083 334.123l-5.28516 3.31641l-3.70703 2.53809v3.72754l2.15918 3.30566l7.69727 1.56934l1.95801 -9.38184l4.0957 -6.63379l2.72754 -3.1377l4.98047 -1.9375l-4.68555 -5.57031l-9.07617 -0.874023h-6.82324l0.757812 8.09766l5.69629 1.17871zM366.523 331.006
l-9.64453 -6.83398h-5.46484v4.87598l4.68555 7.51758l6.31738 1.46387l4.51758 -1.94824zM236.483 309.452l2.68555 0.0527344l3.06348 -0.631836l-1.31641 -2.7168l-3.33789 -0.28418l-0.673828 -3.23242l-2.5791 -1.60059l-4.12793 -0.347656
c-0.136719 0.96875 -0.231445 1.70605 -0.231445 1.70605h-1.60059v3.47461h6.72852zM219.142 303.145l2.18945 2.72754l2.92773 -2.30566l-0.505859 -3.41211l-4.875 -0.410156zM511.937 194.648c0.0107422 -0.884766 0.0634766 -1.75879 0.0527344 -2.64355
c0 -15.2568 -1.41113 -30.209 -3.99023 -44.75c-0.90625 -5.10742 -1.94824 -10.1504 -3.15918 -15.1738c-4.75977 -19.7842 -11.8242 -38.6641 -20.9014 -56.375c-42.4336 -82.8467 -128.64 -139.706 -227.934 -139.706c-141.159 0 -256.005 114.835 -256.005 256.005
c0 58.7871 19.9639 112.972 53.4062 156.228c8.86523 11.4561 18.6367 22.1543 29.2715 31.957c45.6357 42.0654 106.507 67.8105 173.317 67.8105c66.252 0 126.691 -25.292 172.2 -66.7256c4.02246 -3.6748 7.90723 -7.50781 11.6875 -11.4355
c1.33789 -1.36914 2.6748 -2.75879 3.99121 -4.16992c20.0166 -21.6172 36.3691 -46.667 48.0146 -74.1807c0.694336 -1.61035 1.29492 -3.26367 1.94824 -4.89551c8.73926 -21.9229 14.5723 -45.3096 16.9414 -69.7061c0.706055 -7.31836 1.08496 -14.752 1.1582 -22.2383z
M463.754 296.964v-10.3926l4.56934 0.631836l2.42188 -0.0947266c-1.7373 3.89551 -3.55859 7.73926 -5.50684 11.5195zM426.764 341.63l-10.0986 -5.12695l1.01074 -3.35938l16.1211 -0.147461l4.6123 6.86523c-3.70703 4.54883 -7.58203 8.93945 -11.6035 13.2041z
M117.952 370.05v0l-0.0107422 -4.69629h11.5615l2.41113 3.22168v3.66504h-8.3916l-0.442383 -1.75879h-5.12793v-0.431641zM126.145 358.625l-8.19238 -2.33789l2.20117 -2.63184l11.5605 0.726562s0.442383 5.11719 0 5.11719
c-0.441406 0 -5.56934 -0.874023 -5.56934 -0.874023zM480.063 257.004l1.27441 1.17969c-1.86328 6.32812 -3.99023 12.5303 -6.35938 18.627l-12.2461 -0.210938l-6.13867 6.73926l-1.17969 10.835l-6.28613 -3.43262l-3.37988 -13.2461l-9.07617 9.66602
l-0.369141 9.12891l-8.76074 7.5498l-3.25293 3.22168h-10.1719l3.22168 -9.06543l12.2354 -6.82324l2.12695 -2.25391l-2.64258 -1.32617l0.125977 -7.18164l-5.95898 -2.48438l-5.08594 1.11621l-3.17969 4.50586l8.26562 -0.441406l2.24219 3.01074l-18.3418 12.373
l-1.39062 5.26465l-7.45508 -6.73926l-7.57031 1.54785l-11.498 -14.9414l-2.24316 -5.85449l-7.36035 -0.663086l-10.8975 -0.0634766l-6.49707 3.04297l-1.91602 12.9307l2.34766 6.15918l11.0664 2.42188l12.0674 -2.42188l1.48438 6.68652l-5.12793 1.21094
l1.75879 10.4033l12.1504 1.90625l8.49805 12.0029l8.78125 1.47461l7.91797 -1.16895h2.90625l-1.58984 11.2666l-9.64453 -3.88574l-3.37012 8.42383l-5.59082 0.779297l-1.05273 5.78125l4.56934 4.95898l10.835 4.24316l2.79004 4.99121
c-41.4121 36.4854 -95.6924 58.6914 -155.1 58.6914c-51.543 0 -99.2314 -16.7207 -138.012 -44.9717l11.8457 0.0947266l5.27539 -2.92676l9.95117 -2.14844l0.768555 -3.90625l15.8252 -0.589844l-2.14746 5.0752l-14.0566 0.389648l3.29492 3.06445l-1.1582 3.7168
h-12.6982l13.8564 10.3506h13.2783l6.24414 -8.5918l10.3604 -0.589844l6.24414 6.06543l4.69629 -2.34863l-8.60254 -8.40234s-11.8984 -0.200195 -11.3193 -0.200195s0.979492 -8.19238 0.979492 -8.19238l14.4355 0.400391l1.55859 3.89648l9.9502 0.588867
l1.16895 5.85449l-5.85449 0.990234l1.94824 5.26465l4.48535 1.3584l15.6152 -0.779297l-8.60254 -7.8125l1.37988 -6.04492l8.98145 -1.36816l-0.589844 10.9297l8.59277 4.49609l15.2256 1.75781l22.0596 -9.77051v-8.39258l7.0332 -1.75879l-3.5166 -6.63281h-9.9502
l-2.94824 -7.61328l-22.7656 5.37012l17.8896 9.5293l-6.82227 5.79102l-15.4268 -1.94824l-1.34766 -1.38965l-0.0527344 0.0214844l-0.242188 -0.336914l-4.43262 -4.6123l-7.33887 -0.621094l0.589844 -3.66406l2.56934 -1.06348l-0.105469 -1.21094l-5.9707 -0.853516
l-0.442383 -3.46387l-5.70703 -0.294922l-1.03125 6.88672l-10.2451 -3.11719l-20.9434 -12.2559l2.3584 -8.62402l5.85449 -3.81152l11.709 -1.62207v-13.3096l5.41211 0.874023l4.99121 10.4033l12.4561 3.94922v15.9629l6.92871 5.23242l16.7422 -3.94824
l-1.17969 -10.54h4.48535l12.2988 6.04395l0.589844 -13.8467l8.9707 -5.46484l-0.378906 -8.21289l-8.58203 -2.92676l0.589844 -2.7168l10.3398 -4.70703l-0.199219 -5.6543l-3.00098 -0.25293l-0.0322266 0.158203l-13.0459 4.02246l-0.557617 4.17969h-0.0107422
l3.81152 2.62207v3.81152l-4.10645 1.03223l-1.02148 -3.5166l-7.20215 -1.10547l-0.71582 0.242188v-0.358398l-2.48535 -0.378906l-2.03223 4.10645l-2.34766 1.03223h-5.12793l-2.32715 -1.90625v-4.21191l4.39062 -1.46387l4.32812 -0.610352l-0.96875 -0.431641
l-3.94922 -4.38086l-1.74805 2.19043l-3.81152 1.01074l-10.4033 -9.79199l1.3584 -1.11621l-15.3623 -8.50781l-14.4463 -15.0361l-0.990234 -6.69727l-14.4883 -9.51855l-7.18164 -7.22363l0.790039 -14.4463l-9.96094 4.63281l0.0732422 8.45508l-27.7139 -0.00976562
l-14.3516 -7.26562l-6.2334 -11.4883l-2.46387 -9.10742l4.0332 -8.83496l11.3086 -1.37891l17.9736 12.0146l1.56934 -5.94922l-5.48633 -10.3613l13.6777 -2.33789l1.3584 -21.1221l18.7432 -3.17969l11.9082 13.7617l14.457 -2.9375l5.0752 -7.06543l13.8574 0.821289
l0.389648 4.10645l7.6123 -3.7168l8.57129 -13.457l14.8359 -0.220703l5.47559 -9.57129l0.779297 -11.6982l16.4053 -6.25488l20.6904 -0.210938l6.05469 -9.92871l9.1709 -2.93848l-1.75781 -8.20215l-10.0557 -12.7725l-2.92773 -28.2822l-9.06641 -7.18164
l-13.4668 0.411133l-4.49609 -7.80273l3.32715 -14.6572l-14.6465 -18.7422l-4.68555 -8.59277l-13.9619 -6.70703l-9.18262 -1.38965l-0.378906 -3.89648l6.44434 -1.8418l-0.779297 -4.19141l-5.77051 -5.54883l3.50684 -4.40137l6.94922 -0.210938l-0.389648 -5.37012
l-1.84277 -5.26465l-0.588867 -4.2959l10.2764 -8.65527l-1.36914 -4.49609l-13.9824 0.25293l-13.9102 12.1504l-10.835 19.0488l1.5166 18.3838l-8.20312 10.9404l3.31738 18.5537l-4.875 1.36816v40.2129s-13.668 10.3506 -14.4473 10.3506
c-0.789062 0 -7.2334 1.74805 -7.2334 1.74805l-1.3584 7.62305l-17.7734 22.249l1.75781 8.00195l0.579102 13.0781l12.2881 8.5918l-1.75781 14.6475l-17.9531 1.35742l-14.0576 16.0156l-9.9502 2.7168l-6.44434 1.17969l0.779297 5.85449l-8.20215 1.16797v-3.31641
l-20.501 5.0752l-8.25488 12.625l3.34766 6.11816l-12.9824 18.9424l-2.22168 13.8564h-5.26465l1.75781 -13.4668l8.98145 -13.8574l-0.978516 -5.47461l-7.61328 1.16797l-9.36035 15.9736v18.585l-9.76074 4.69629v13.3721
c2.55859 5.99121 5.37988 11.8252 8.40234 17.5322l9.75 11.8457l-0.378906 4.26465c-3.33789 -5.2334 -6.46484 -10.6035 -9.38184 -16.1104l-8.40234 -10.2031v-7.3291c-12.0566 -28.251 -18.7529 -59.334 -18.7529 -91.9443c0 -129.545 105.39 -234.945 234.925 -234.936
c73.4434 0 139.085 33.916 182.214 86.8691h-7.75v15.6045l-8.9707 12.0674v18.7842l-6.83398 6.81348l-0.589844 7.8125l8.67676 16.584l-16.4785 29.0938l1.96875 19.7422l-14.8467 1.53809l-5.46484 5.47461h-9.96094l-5.06445 -4.68555h-17.5635l-0.589844 -1.55859
h-9.77148l-22.4492 25.5664l0.200195 19.9219l3.70605 1.3584l1.37988 7.62305h-5.26465l-2.15918 8.00293l25.9766 18.7422v13.2783l12.709 7.05469l5.12793 -0.516602h10.4668l8.1709 4.3916l26.3662 2.05273v-13.4775l20.8066 -5.27539l4.10645 -2.92773h3.80078v7.3291
l12.0146 1.16895l11.4141 -8.49805h18.7314zM139.633 331.69l3.79004 -7.77051l6.00195 1.90527l1.91699 7.46582l-5.55957 1.32617zM172.264 314.116v-4.83301h-14.0469l-5.26465 1.46387l1.31641 3.36914l6.75 2.79102h9.22363v-2.79102h2.02148zM178.729 307.378
h-7.89648v-7.76074l4.37988 0.810547l3.5166 2.26465v4.68555zM174.77 309.283v5.57031l4.83301 -4.40137zM176.971 298.017l-5.40234 -0.74707l-0.726562 -1.75879l-3.52734 -0.305664l-1.16895 -5.11719h7.46582l3.35938 3.37012v4.55859zM158.375 307.378
l-5.41211 -5.85449l-0.884766 -5.85449l4.10645 -2.20117l9.95117 13.9102h-7.76074zM190.153 299.617v-4.54883h-7.46582l-2.04199 2.94824v4.2334h0.588867zM183.257 305.872l2.84277 -2.36914l2.87402 2.36914l-3.58984 2.23242zM483.876 245.148l1.66309 -3.13867
c-0.294922 1.34863 -0.621094 2.6748 -0.926758 4.00195zM39.8232 291.278l8.40234 10.2031c-3.02246 -5.71777 -5.84375 -11.5508 -8.40234 -17.5322v7.3291z" />
    <glyph glyph-name="017-search" unicode="&#xf110;" 
d="M375.733 117.517l136.267 -136.266l-45.25 -45.25l-136.265 136.265c-34.4062 -25.1943 -76.6709 -40.2666 -122.485 -40.2666c-114.688 0 -208 93.3125 -208 207.999c0 114.688 93.3115 208 207.999 208c114.687 0 207.999 -93.3125 207.999 -208
c0 -45.8145 -15.0703 -88.0752 -40.2646 -122.481zM208 95.999c79.4043 0 143.999 64.5928 143.999 143.999s-64.5938 144 -143.999 144c-79.4062 0 -144 -64.5938 -144 -144s64.5938 -143.999 144 -143.999z" />
    <glyph glyph-name="018-arrow-right-2" unicode="&#xf111;" 
d="M503.816 211.893c5.29492 -5.28613 8.2002 -12.3584 8.18359 -19.8965c0.0205078 -7.51367 -2.88867 -14.582 -8.17969 -19.877l-184.901 -184.9c-5.27734 -5.27832 -12.3125 -8.19238 -19.8135 -8.19238c-7.50879 0 -14.54 2.87598 -19.8184 8.1543l-16.7871 16.7383
c-5.27441 5.27344 -8.17969 12.2207 -8.17969 19.7178c0 7.50488 2.90527 14.3525 8.17969 19.6309l109.088 108.709h-343.928c-15.4512 0 -27.6602 13.3164 -27.6602 28.7725v23.7383c0 15.4561 12.209 27.5527 27.6602 27.5527h342.704l-107.868 108.105
c-5.27441 5.27051 -8.17969 12.5459 -8.17969 20.0469c0 7.50586 2.90527 14.5439 8.17969 19.8145l16.7871 16.791c5.27832 5.27441 12.3086 8.17578 19.8184 8.17578c7.50098 0 14.5352 -2.89746 19.8135 -8.17578z" />
    <glyph glyph-name="020-star" unicode="&#xf113;" 
d="M407.616 -64c-1.77051 0 -3.5625 0.448242 -5.16309 1.32227l-146.453 80.96l-146.475 -80.96c-3.5625 -1.9834 -7.97852 -1.72754 -11.3066 0.619141s-5.03516 6.40039 -4.39453 10.4316l28.0957 172.203l-118.891 121.898
c-2.79492 2.8584 -3.75488 7.04004 -2.47461 10.8369c1.28027 3.79785 4.54395 6.5498 8.49023 7.14746l163.904 25.0449l73.3867 156.373c3.52051 7.50977 15.7871 7.50977 19.3066 0l73.3867 -156.373l163.904 -25.0449
c3.94629 -0.597656 7.23145 -3.37109 8.49023 -7.14746c1.25879 -3.77539 0.320312 -7.97852 -2.47461 -10.8369l-118.912 -121.877l28.0967 -172.203c0.661133 -4.03223 -1.0459 -8.08496 -4.39551 -10.4316c-1.79199 -1.30176 -3.96777 -1.96289 -6.12207 -1.96289z
M256 41.1523c1.77051 0 3.5625 -0.448242 5.16309 -1.32324l132.416 -73.1943l-25.4297 155.84c-0.533203 3.34961 0.533203 6.74121 2.90137 9.17383l108.16 110.869l-148.992 22.7627c-3.52051 0.533203 -6.52832 2.79395 -8.04297 6.01562l-66.1758 140.928
l-66.1543 -140.949c-1.51465 -3.2207 -4.52344 -5.48242 -8.04297 -5.99414l-148.992 -22.7627l108.16 -110.869c2.36816 -2.43262 3.43457 -5.82422 2.90137 -9.17383l-25.4297 -155.84l132.416 73.1943c1.5791 0.875 3.37109 1.32324 5.1416 1.32324z" />
  </font>
</defs>
</svg>
